Войти на сайт   Зарегистрироваться

Авторизация

Логин:Пароль:
в сети 2782-й день
расширенный поиск
2015, 2016, Chillout, Clipart, Dance, Deep House, design, Downtempo, Graphic, House, Lounge, MP3, Photo, photoshop, Pop, Portable, Stock, Trance, аудиокнига, бесплатно, видео, видеокурс, Графика, дизайн, документальный, игры, история, клип, Клипарт, книга, книги, обои, обучающее видео, поп, программы, сборник, система, скачать, Скачать видеоурок, софт, фантастика, фильм, фото, фотошоп   → показать все теги
0

Фильмы и Сериалы » Скачать Экзистенция / eXistenZ (1999) HDTVRip-AVC

Экзистенция / eXistenZ (1999) HDTVRip-AVC


IMDB: 6.8 КиноПоиск: 7.29


Информация о фильме:
Название: Экзистенция
Оригинальное название: eXistenZ / Crimes of the Future
Год выхода: 1999
Жанр: Фантастика, Ужасы, Триллер, Приключения, Артхаус
Режиссер: Дэвид Кроненберг /David Cronenberg
Сценарист: Дэвид Кроненберг /David Cronenberg
Оператор: Питер Сушицки /Peter Suschitzky
Композитор: Говард Шор /Howard Shore
В фильме снимались:
Дженнифер Джейсон Ли - Jennifer Jason Leigh /Allegra Geller/Джуд Лоу - Jude Law /Ted Pikul/
Иэн Холм - Ian Holm /Kiri Vinokur/Уиллем Дефо - Willem Dafoe /Gas/Дон МакКеллар - Don McKellar /Yevgeny Nourish/
Каллум Кит Ренни - Callum Keith Rennie /Hugo Carlaw/Кристофер Экклстон - Christopher Eccleston /Seminar Leader/
Сара Полли - Sarah Polley /Merle/и другие...

Описание:
На закрытой презентации игры виртуальной реальности под названием «Экзистенция» на ее великолепную создательницу Аллегру Гелла совершает покушение сумасшедший убийца, который хочет уничтожить и ее игру! Вынужденная спасаться бегством, Аллегра подключает младшего сотрудника к тестированию поврежденной системы тем, что … убеждает его сыграть в Экзистенцию вместе с ней! События разворачиваются так, что угроза их реальной жизни пересекается с виртуальными событиями в игре.
Знаете ли вы, что...
* В сцене, где представляют игру «Экзистенция», надпись на ID-карточке доктора Ноеля Дихтера сделана на древневавилонском языке.
* Некоторые сцены фильма содержат ссылки на старый фильм Кроненберга «Видеодром» и психоделический роман Филиппа Дика «Стигматы Палмера Элдрича».
* В сцене, где Кири возится с «портом» Аллегры, он бормочет на венгерском языке «спасибо, спасибо, спасибо».
* Буквосочетание «isten», запрятанное в названии фильма между заглавными «X» и «Z», означает на венгерском «бог».
* Ради «Экзистенции» Дженнифер Джейсон Ли пожертвовала ролью в фильме Кубрика «Широко закрытые глаза».


Страна: Канада/Великобритания
Выпущено: Alliance Atlantis Communications, Canadian Television Fund, The Harold Greenberg Fund
Продолжительность: 01:37:04
Перевод: Профессиональный , двухголосый (закадровый)
Субтитры: Английские / Русские (UTF-8)

Качество: HDTVRip-AVC /Исходник HDTVRip 720p
Формат: MKV
Видео кодек: x264
Аудио кодек: AC3
Видео: MPEG4 Video (H264) 896x504, 23.98fps, ~1999 kbps avg, 0.18 bit/pixel
Аудио 1: AC3, 192kbps, 2 channels, 16bit, 48000khz /Профессиональный , двухголосый (закадровый)
Аудио 2: AC3, 192kbps, 2 channels, 16bit, 48000khz /Английский
Размер: 1.61 GB

MediaInfo:
Format : Matroska
File size : 1.61 GiB
Duration : 1h 37mn
Overall bit rate : 2 366 Kbps
Encoded date : UTC 2010-11-19 15:00:26
Writing application : mkvmerge v4.0.0 ('The Stars were mine') сборка от Jun 6 2010 16:18:42
Writing library : libebml v1.0.0 + libmatroska v1.0.0

Video
ID : 1
Format : AVC
Format/Info : Advanced Video Codec
Format profile : High@L3.1
Format settings, CABAC : Yes
Format settings, ReFrames : 4 frames
Codec ID : V_MPEG4/ISO/AVC
Duration : 1h 37mn
Bit rate : 1 999 Kbps
Width : 896 pixels
Height : 504 pixels
Display aspect ratio : 16:9
Frame rate : 23.976 fps
Color space : YUV
Chroma subsampling : 4:2:0
Bit depth : 8 bits
Scan type : Progressive
Bits/(Pixel*Frame) : 0.185
Stream size : 1.32 GiB (82%)
Writing library : x264 core 92 r1510 33d382a
Encoding settings : cabac=1 / ref=1 / deblock=1:0:0 / analyse=0x3:0x3 / me=dia / subme=1 / psy=1 / psy_rd=0.00:0.00 / mixed_ref=0 / me_range=16 / chroma_me=1 / trellis=0 / 8x8dct=1 / cqm=0 / deadzone=21,11 / fast_pskip=1 / chroma_qp_offset=0 / threads=1 / sliced_threads=0 / nr=0 / decimate=1 / interlaced=0 / constrained_intra=0 / bframes=3 / b_pyramid=2 / b_adapt=1 / b_bias=0 / direct=1 / wpredb=1 / wpredp=0 / keyint=250 / keyint_min=25 / scenecut=40 / intra_refresh=0 / rc=abr / mbtree=0 / bitrate=1999 / ratetol=1.0 / qcomp=0.60 / qpmin=10 / qpmax=51 / qpstep=4 / ip_ratio=1.40 / pb_ratio=1.30 / aq=1:1.00
Language : English

Audio #1
ID : 2
Format : AC-3
Format/Info : Audio Coding 3
Mode extension : CM (complete main)
Codec ID : A_AC3
Duration : 1h 37mn
Bit rate mode : Constant
Bit rate : 192 Kbps
Channel(s) : 2 channels
Channel positions : Front: L R
Sampling rate : 48.0 KHz
Bit depth : 16 bits
Compression mode : Lossy
Stream size : 134 MiB (8%)
Title : Профессиональный, двухголосый (закадровый)
Language : Russian

Audio #2
ID : 3
Format : AC-3
Format/Info : Audio Coding 3
Mode extension : CM (complete main)
Codec ID : A_AC3
Duration : 1h 37mn
Bit rate mode : Constant
Bit rate : 192 Kbps
Channel(s) : 2 channels
Channel positions : Front: L R
Sampling rate : 48.0 KHz
Bit depth : 16 bits
Compression mode : Lossy
Stream size : 134 MiB (8%)
Title : Аглицкий
Language : English

Text #1
ID : 4
Format : UTF-8
Codec ID : S_TEXT/UTF8
Codec ID/Info : UTF-8 Plain Text

Text #2
ID : 5
Format : UTF-8
Codec ID : S_TEXT/UTF8
Codec ID/Info : UTF-8 Plain Text


Экзистенция / eXistenZ (1999) HDTVRip-AVC


Экзистенция / eXistenZ (1999) HDTVRip-AVC


Экзистенция / eXistenZ (1999) HDTVRip-AVC


md5 ace67eb141960a8adfcfe6d0049ad371


Скачать: Экзистенция / eXistenZ (1999) HDTVRip-AVC



Скачать бесплатно фильм Экзистенция / eXistenZ (1999) HDTVRip-AVC быстро в хорошем качестве

Маша и Медведь (серии 1-45) DVDRip
Маша и Медведь (серии 1-45) DVDRip
Маша и Медведь - наслаждайтесь просмотром своего любимого мультфильма Маша и медведь на телефоне. Все 45 серий были перекодированы в мобильный формат MPEG4....
Кот Саймона / Simons cat (DVDRip/2008)
Кот Саймона / Simons cat (DVDRip/2008)
Короткометражный комедийный мультфильм про кота Саймона, который получил приз Британской анимационной премии как лучший комедийный мультфильм!...
  Имя:                 Email:  

Полужирный Наклонный текст Подчеркнутый текст Зачеркнутый текст | Выравнивание по левому краю По центру Выравнивание по правому краю | Вставка смайликов Выбор цвета | Скрытый текст Вставка цитаты Преобразовать выбранный текст из транслитерации в кириллицу Вставка спойлера
Результат сложения Четырех и Шести